서버에 요청중입니다...
[광고&문의]
토렌트 토캅스 바로가기
트위터 즐겨찾기
아이디 비밀번호
[AD]
최신영화

[전쟁] [영] 덩케르크 Dunkirk.2017.720/1080p.BluRay.H264.AAC-RARBG

토렌트 2017-12-06 (수) 15:40 7일전 3,016  
  dunkirk.2017.720p.bluray.h264.aac-rarbg.torrent  마그넷 26.6K
전체용량: 1.29G
토렌트 파일목록 (6)
Dunkirk.2017.720p.BluRay.H264.AAC-RARBG.mp4 1.29G
RARBG.txt 30.00B
Subs/2_Eng.srt 42.83K
Subs/3_Eng.srt 52.84K
Subs/Dunkirk.2017.720p.BluRay.H264.AAC-RARBG.idx 38.79K
Subs/Dunkirk.2017.720p.BluRay.H264.AAC-RARBG.sub 3.01M
  dunkirk.2017.1080p.bluray.h264.aac-rarbg.torrent  마그넷 41.5K
전체용량: 2.04G
토렌트 파일목록 (6)
Dunkirk.2017.1080p.BluRay.H264.AAC-RARBG.mp4 2.03G
RARBG.txt 30.00B
Subs/2_Eng.srt 42.83K
Subs/3_Eng.srt 52.84K
Subs/Dunkirk.2017.1080p.BluRay.H264.AAC-RARBG.idx 38.79K
Subs/Dunkirk.2017.1080p.BluRay.H264.AAC-RARBG.sub 4.70M


Allied soldiers from Belgium, the British Empire and France are surrounded by the German Army, and evacuated during a fierce battle in World War II.

IMDb:- http://www.imdb.com/title/tt5013056 
Movie Title: Dunkirk (2017) 
Director: Christopher Nolan
Writer: Christopher Nolan
Stars: Fionn Whitehead, Barry Keoghan, Mark Rylance | See full cast & crew
Genres: Action, Drama, History
Language: English 


Dunkirk.2017.1080p.BluRay.H264.AAC-RARBG

Video

Format                                   : AVC
Format/Info                              : Advanced Video Codec
Format profile                           : [email protected]
Format settings                          : CABAC / 4 Ref Frames
Format settings, CABAC                   : Yes
Format settings, RefFrames               : 4 frames
Codec ID                                 : avc1
Codec ID/Info                            : Advanced Video Coding
Duration                                 : 1 h 46 min
Bit rate                                 : 2 500 kb/s
Width                                    : 1 920 pixels
Height                                   : 1 080 pixels
Display aspect ratio                     : 16:9
Frame rate mode                          : Constant
Frame rate                               : 23.976 (23976/1000) FPS
Color space                              : YUV
Chroma subsampling                       : 4:2:0
Bit depth                                : 8 bits
Scan type                                : Progressive
Bits/(Pixel*Frame)                       : 0.050
Stream size                              : 1.86 GiB (92%)

Audio

Format                                   : AAC
Format/Info                              : Advanced Audio Codec
Format profile                           : LC
Codec ID                                 : mp4a-40-2
Duration                                 : 1 h 46 min
Bit rate mode                            : Constant
Bit rate                                 : 224 kb/s
Channel(s)                               : 2 channels
Channel(s)_Original                      : 6 channels
Channel positions                        : Front: L C R, Side: L R, LFE
Sampling rate                            : 48.0 kHz
Frame rate                               : 46.875 FPS (1024 SPF)
Compression mode                         : Lossy
Stream size                              : 171 MiB (8%)
Language                                 : English

SreenShot








연관검색어
덩케르크
Dunkirk
2017
720
1080p
BluRay
H264
AAC
RARBG

번호 분류 이미지 제목 용량 날짜
리니지1 신규서버 12월 10일 8시 오픈필독
9,304 드라마
자막있음 [한글] 가족은 괴로워 2 (동경가족: 세번째 이야기) 家族之苦2.Kazoku.wa.Tsuraiyo.…
14:40
1.50G 14:40
9,303 드라마
자막있음 [한글] 정글 Jungle.2017.1080p.BluRay.x264-[YTS.AG]
14:40
1.76G 14:40
9,302 한국
리얼 Real.2017.720p.WEB-DL.x264-shilpa143
14:40
1.31G 14:40
9,301 호러
[한글] 더 크루서픽션 The.Crucifixion.2017.1080p.BluRay.x264.DTS-HD.MA.5.1-MT+1080p.x264.DTS-…
05:20
12.09G 05:20
9,300 호러
[한글] 더 크루서픽션 The.Crucifixion.2017.1080p.BluRay.AVC.DTS-HD.MA.5.1-FGT+REMUX
05:00
21.94G 05:00
9,299 호러
[한글] 더 크루서픽션 The Crucifixion 2017 BluRay 1080p 5.1CH x264 Ganool
03:00
1.41G 03:00
9,298 액션
자막있음 [한글] 어카운턴트 The.Accountant.2016.2160p.BluRay.HEVC.DTS-HD.MA.7.1-TASTED
03:00
58.94G 03:00
9,297 SF/판타지
자막있음 [한글] 혹성탈출: 종의 전쟁 War.for.the.Planet.of.the.Apes.2017.2160p.BluRay.REMUX.HEVC.DTS…
03:00
49.83G 03:00
9,296 SF/판타지
자막있음 [한글] 혹성탈출: 종의 전쟁 War.for.the.Planet.of.the.Apes.2017.2160p.BluRay.HEVC.TrueHD.7.…
03:00
51.09G 03:00
9,295 코미디
[한글] 디 영 오펜더스 (코카인 삼만리) The.Young.Offenders.2016.1080p.WEBRip.x264-iNTEN…
12-12
6.05G 12-12
9,294 호러
자막있음 [한글] 해피 데스데이 Happy.Death.Day.2017.720p.HC.HDRip.XviD.MP3+720/1080p.HC.HDRip.x264.AAC…
12-11
2.13G 12-11
9,293 다큐
[영] 쥐 필름 Rat.Film.2016.1080p.AMZN.WEBRip.DDP5.1.x264-monkee
12-11
7.13G 12-11
9,292 호러
[한글] 그것 IT.2017.720/1080p.HDRip.X264.AC3-EVO+720/1080p.WEBRip.x264.AAC2.0-SHITBOX+720p WEBRi…
12-11
2.81G 12-11
9,291 액션
[자체 한글]열혈남고 Fist.&.Faith.2017.720p.HDRip.H264.MP3-UKN
12-11
3.32G 12-11
9,290 한국
공조 Confidential.Assignment.2017.LIMITED.1080p.BluRay.x264-GiMCHi
12-11
8.74G 12-11
9,289 코미디
[한글] 묘성인 喵星人 Meow.2017.Meow.2017.720/1080p.BluRay.x264.DTS-WiKi +720p.800MB.Ganool
12-10
4.37G 12-10
9,288 액션
[한글] 어쌔신 - 더 비기닝 2017 720/1080p BluRay x264 AC3 - nature boy
12-10
4.37G 12-10
9,287 코미디
자막있음 [한글] 후처업의 여자 後妻業の女 Black.Widow.Business.2016.720/1080p.BluRay.x264.DTS-WiK
12-10
4.60G 12-10
9,286 액션
[한글] 액츠 오브 벤젠스 Acts.Of.Vengeance.2017.1080p.BluRay.AVC.DTS-HD.MA.5.1-FGT+REMUX
12-10
20.84G 12-10
9,285 액션
[한글] 액츠 오브 벤젠스 Acts.Of.Vengeance.2017.1080p.BluRay.x264.DTS-HD.MA.5.1-MT+720/1080p…
12-10
10.46G 12-10
 1  2  3  4  5  6  7  8  9  10  다음  맨끝
487*70 487*70